Englishman Who Went Up A Hill But Came Down a Mountain 1995 BRRip XviD MP3-RARBG

seeders: 0
leechers: 0
updated:
Added by z0n3212.59M in Movies
Torrent verified. Downloaded 133 times.

DownloadFast Safe Anonymous
movies, software, shows...
Summary:

When an English cartographer must tell a Welsh village that their mountain is only a hill, the offended community sets out to change that.

Written by Gingerfitz15.65K
Available in versions: 720pHDRiP
Englishman Who Went Up A Hill But Came Down a Mountain 1995 BRRip XviD MP3-RARBG (Size: 1.21 GB)
  Englishman.Who.Went.Up.A.Hill.But.Came.Down.a.Mountain.1995.BRRip.XviD.MP3-RARBG.avi 1.21 GB
  Englishman.Who.Went.Up.A.Hill.But.Came.Down.a.Mountain.1995.BRRip.XviD.MP3-RARBG.nfo 3.21 KB
  rarbg.com.avi 1.14 MB
  rarbg.com.txt 34 bytes

Description


http://rarbg.to
Englishman.Who.Went.Up.A.Hill.But.Came.Down.a.Mountain.1995.BRRip.XviD.MP3-RARBG

image
Screens :

image

image

image

image

image
Mediainfo :

Video
ID : 0
Format : MPEG-4 Visual
Format profile : [email protected]
Format settings, BVOP : No
Format settings, QPel : No
Format settings, GMC : No warppoints
Format settings, Matrix : Default (H.263)
Codec ID : XVID
Codec ID/Hint : XviD
Duration : 1h 35mn
Bit rate : 1 597 Kbps
Width : 720 pixels
Height : 306 pixels
Display aspect ratio : 2.35:1
Frame rate : 24.000 fps
Color space : YUV
Chroma subsampling : 4:2:0
Bit depth : 8 bits
Scan type : Progressive
Compression mode : Lossy
Bits/(Pixel*Frame) : 0.302
Stream size : 1.07 GiB (88%)
Title : RARBG.COM - Englishman.Who.Went.Up.A.Hill.But.Came.Down.a.Mountain.1995.BRRip.XviD.MP3-RARBG
Writing library : Lavc56.60.100

Audio
ID : 1
Format : MPEG Audio
Format version : Version 1
Format profile : Layer 3
Mode : Joint stereo
Mode extension : MS Stereo
Codec ID : 55
Codec ID/Hint : MP3
Duration : 1h 35mn
Bit rate mode : Constant
Bit rate : 192 Kbps
Channel(s) : 2 channels
Sampling rate : 48.0 KHz
Compression mode : Lossy
Stream size : 132 MiB (11%)
Alignment : Aligned on interleaves
Interleave, duration : 24 ms (0.58 video frame)
Interleave, preload duration : 24 ms
Title : RARBG.COM - Englishman.Who.Went.Up.A.Hill.But.Came.Down.a.Mountain.1995.BRRip.XviD.MP3-RARBG



Sharing Widget


Download torrent
1.21 GB
seeders:0
leechers:0
Englishman Who Went Up A Hill But Came Down a Mountain 1995 BRRip XviD MP3-RARBG



To share this torrent use the code below and insert it into comments, status messages, forum posts or your signature.

Torrent: Englishman Who Went Up A Hil...in 1995 BRRip XviD MP3-RARBG

Trackers

tracker name
udp://tracker.openbittorrent.com:80/announce
udp://tracker.publicbt.com:80/announce
udp://tracker.coppersurfer.tk:6969/announce
udp://9.rarbg.me:2710/announce
udp://glotorrents.pw:6969/announce
http://tracker.trackerfix.com/announce
udp://9.rarbg.to:2710/announce
udp://tracker.opentrackr.org:1337/announce
ĀµTorrent compatible trackers list

Locations

name
KickassTorrents
Torrent hash: 5824B21B393EE11778BA40C00CB60008CCC4E900

All Comments

audio
0/10
video
0/10
please, leave only comments related to that torrent
Sign In


User Opinions

smeester21.23K, hdebmark4653, erlekw2957, truly012333, Data1001904
Report a bug Open chat
Sitemap