Englishman Who Went Up A Hill But Came Down a Mountain 1995 720p BluRay H264 AAC-RARBG

seeders: 4
leechers: 2
updated:
Added by z0n3212.58M in Movies > Highres Movies
Torrent verified. Downloaded 629 times.

DownloadFast Safe Anonymous
movies, software, shows...
Summary:

When an English cartographer must tell a Welsh village that their mountain is only a hill, the offended community sets out to change that.

Written by Gingerfitz15.65K
Available in versions: 720pHDRiP
Englishman Who Went Up A Hill But Came Down a Mountain 1995 720p BluRay H264 AAC-RARBG (Size: 1.16 GB)
  Englishman.Who.Went.Up.A.Hill.But.Came.Down.a.Mountain.1995.720p.BluRay.H264.AAC-RARBG.mp4 1.16 GB
  Englishman.Who.Went.Up.A.Hill.But.Came.Down.a.Mountain.1995.720p.BluRay.H264.AAC-RARBG.nfo 3.96 KB
  rarbg.com.mp4 992.93 KB
  rarbg.com.txt 34 bytes

Description


http://rarbg.to
Englishman.Who.Went.Up.A.Hill.But.Came.Down.a.Mountain.1995.720p.BluRay.H264.AAC-RARBG

image
Screens :

image

image

image

image

image
Mediainfo :

Video
ID : 1
Format : AVC
Format/Info : Advanced Video Codec
Format profile : [email protected]
Format settings, CABAC : Yes
Format settings, ReFrames : 4 frames
Codec ID : avc1
Codec ID/Info : Advanced Video Coding
Duration : 1h 35mn
Bit rate : 1 500 Kbps
Width : 1 280 pixels
Height : 542 pixels
Display aspect ratio : 2.35:1
Frame rate mode : Constant
Frame rate : 24.000 fps
Color space : YUV
Chroma subsampling : 4:2:0
Bit depth : 8 bits
Scan type : Progressive
Bits/(Pixel*Frame) : 0.090
Stream size : 1.00 GiB (87%)
Writing library : x264 core 148 r2638M 7599210
Encoding settings : cabac=1 / ref=4 / deblock=1:-1:-1 / analyse=0x3:0x113 / me=umh / subme=9 / psy=1 / psy_rd=1.00:0.15 / mixed_ref=1 / me_range=24 / chroma_me=1 / trellis=2 / 8x8dct=1 / cqm=0 / deadzone=21,11 / fast_pskip=1 / chroma_qp_offset=-3 / threads=32 / lookahead_threads=4 / sliced_threads=0 / nr=0 / decimate=1 / interlaced=0 / bluray_compat=0 / constrained_intra=0 / bframes=3 / b_pyramid=2 / b_adapt=2 / b_bias=0 / direct=3 / weightb=1 / open_gop=0 / weightp=2 / keyint=250 / keyint_min=25 / scenecut=40 / intra_refresh=0 / rc_lookahead=50 / rc=2pass / mbtree=1 / bitrate=1500 / ratetol=1.0 / qcomp=0.60 / qpmin=0 / qpmax=69 / qpstep=4 / cplxblur=20.0 / qblur=0.5 / vbv_maxrate=31250 / vbv_bufsize=31250 / nal_hrd=none / filler=0 / ip_ratio=1.40 / aq=3:1.00
Encoded date : UTC 2016-01-15 19:51:15
Tagged date : UTC 2016-01-15 19:51:15

Audio
ID : 2
Format : AAC
Format/Info : Advanced Audio Codec
Format profile : LC
Codec ID : 40
Duration : 1h 35mn
Bit rate mode : Constant
Bit rate : 224 Kbps
Channel(s) : 2 channels
Channel(s)_Original : 6 channels
Channel positions : Front: L C R, Side: L R, LFE
Sampling rate : 48.0 KHz
Frame rate : 46.875 fps (1024 spf)
Compression mode : Lossy
Stream size : 154 MiB (13%)
Language : English
Default : Yes
Alternate group : 1
Encoded date : UTC 2016-01-15 19:51:15
Tagged date : UTC 2016-01-15 19:51:15



Related Torrents

torrent name size files age seed leech

Sharing Widget


Download torrent
1.16 GB
seeders:7
leechers:3
Englishman Who Went Up A Hill But Came Down a Mountain 1995 720p BluRay H264 AAC-RARBG



To share this torrent use the code below and insert it into comments, status messages, forum posts or your signature.

Torrent: Englishman Who Went Up A Hil...5 720p BluRay H264 AAC-RARBG

Trackers

tracker name
udp://tracker.openbittorrent.com:80/announce
udp://tracker.publicbt.com:80/announce
udp://tracker.coppersurfer.tk:6969/announce
udp://9.rarbg.me:2710/announce
udp://glotorrents.pw:6969/announce
http://tracker.trackerfix.com/announce
udp://9.rarbg.to:2710/announce
udp://tracker.opentrackr.org:1337/announce
µTorrent compatible trackers list

Locations

name
KickassTorrents
Torrent hash: A19F6C0A545A07902F2F1C52F5081E66C4007AC9

All Comments

audio
10/10
video
10/10
please, leave only comments related to that torrent
Sign In

audio: 10video: 10

User Opinions

smeester21.23K, 747332295, plaincookie1039, Gailygrl335, Gldnclaw122, Anofox8
Report a bug Open chat
Sitemap